经典影视论坛


 找回密码
 立即注册
搜索
热搜: 活动 交友 discuz
查看: 45|回复: 0

[成龙高清电影合集共55部][百度云网盘资源][国粤双语中字]

[复制链接]


101

主题

134

帖子

805

积分

超级版主

Rank: 8Rank: 8

积分
805
发表于 2019-10-16 09:54:08 | 显示全部楼层 |阅读模式
◎姓    名:成龙/陈港生 (本名) / 房仕龙
◎外 文 名: Jackie Chan
◎性    别: 男
◎星    座: 白羊座
◎出生日期: 1954-04-07
◎出 生 地: 香港
◎职    业: 演员 / 制片 / 导演 / 编剧
t0114a6ed7a7233585e.jpg t01bbf878f6f8a18775.jpg t016c99bb4e6c01a6b2.jpg

◎影人简介
  成龙的父母亲最初在法国领事馆工作,父亲是厨师,也是京剧票友。成龙小时候很喜欢打架,跟那些反对各个外国小孩子打。因为他住在山顶领事馆区,几乎附近的尽是法国人,美国人,这种情况一直到他小学一年级,由于常打架,闹事,所以无法升级。成龙除了喜欢打架之外,还喜欢看武侠片。那时候飞过海 ,武侠片大行其道,曹达华,于素秋是当时最红的明星,成龙崇拜他们,一心想上山学艺。一天,他的父亲带着成龙来到尖沙咀的美丽都大厦,拜访京剧武生于占元师傅,他正是成龙崇拜警察故事的武侠女星于素秋的父亲,成龙看到这边的学生在旁勤奋的练功,觉得非常羡慕。便要求父亲让他在这练武。于是,成龙便成为这的一员,与洪金宝(元龙)﹑元奎 、元华 、成龙(元楼)、元彬 、元德 、元彪 为七小福。于占元师傅的教育方式基本上是老戏行规矩的严厉与苦练。管束孩子做事,练功的方式就打、罚。不到四天,成龙就后悔了。最初的那段日子,成龙常常在晚上暗自哭泣。父亲在把他送进学院之后,就飞去澳洲美大使馆了。


1962年在《大小黄天霸》中首登银幕,后又参加《梁山伯与祝英台》、《秦香莲》等影片的拍摄。1971年满师后始任龙虎武师和特技演员。1972 年入大地电影公司。1973年改名陈元龙,出演《女警察》(1973)并任武术指导;同年还主演《广东小老虎》。后一度离港赴澳发展。

  1976年,罗维游说他重返影坛,并改名成龙,主演《新精武门》、《少林木人巷》、《剑花烟雨江南》、《拳精》、《蛇鹤八步》等,但未能引起注意。1978年思远公司邀他主演《蛇形刁手》和《醉拳》,与导演袁和平找对谐趣功夫戏路,一举成名,此后平步青云。1979年编导演《笑拳怪招》,成绩不俗。

  1980年转入嘉禾公司,编导演《师弟出马》。后曾往好莱坞拍摄《杀手壕》、《炮弹飞车》等,不大理想。折返香港后编导演《龙少爷》(1982),再度掀起热潮。后陆续编导演《A计划》(1983)、《警察故事》(1985)、《龙兄虎弟》、《A计划续集》(1987)、《警察故事续集》(1988)、《奇迹》(1989)、《火烧岛》(1990)、《飞鹰计划》(1991)等,皆票房大热。他陆续主演的影片有师兄洪金宝导演的“福星”系列、《快餐车》(1984)、《龙的心》(1985)、《飞龙猛将》等,以及《警察故事III超级警察》、《双龙会》(1992)、《城市猎人》、《重案组》(1993)、《醉拳2》(1994)、《红番区》、《霹雳火》(1995)、《警察故事四之简单任务》(1996)、《一个好人》(1997)、《我是谁》(1998)等。


1998年后曾往好莱坞拍摄了《尖峰时刻》两集、《上海正午》两集,终获好莱坞肯定,成为继李小龙之后扬名西方的华人功夫巨星。近年作品有《飞龙再生》(2003,陈嘉上)、《环游地球八十天》(2004)、《新警察故事》(2004)、《神话》(2005)等。《宝贝计划》(2006)。成龙执导的《警察故事》曾获第五届金像奖最佳影片奖,并以《红番区》、《我是谁》分别获第15、18届金像奖最佳动作指导奖;他个人并因主演《超级警察》、《重案组》两度荣获金马奖影帝,2005年获金像奖专业精神奖。2008年,成龙与李连杰携手,主演好莱坞影片《功夫之王》,影片口碑平平,但“双J合作”令无数影迷兴奋。2009年,成龙又与香港导演尔冬升合作《新宿事件》,影片充满血腥暴力与真实震撼,令人惊艳,于导演和主演成龙来说都是一大里程碑式的作品。接下来大哥还将主演好莱坞影片《邻家特工》,是他拿手的功夫喜剧片。

  由成龙带领的成家班战功彪炳,曾荣获第4、5、7、8、9、14、21届金像奖最佳动作指导奖,以及金马奖第31、32、34届金马奖最佳动作指导奖。

1971 刁手怪招 ————————— BD720P-MKV/1.27GB
1973 顶天立地 ————————— BD720P-MKV/1GB
1976 少林木人巷 ———————— BD720P-MKV/3GB
1978 一招半式闯江湖 —————— BD720P-MKV/3.21GB
1978 拳精 ——————————— BD720P-MKV/1.36GB
1978 蛇形刁手 ————————— BD720P-MKV/2.44GB
1978 蛇鹤八步 ————————— BD720P-rmvb/1.27GB
1978-1994 醉拳1-2 ——————— BD720P-MKV/2.97GB/2.71GB
1979 笑拳怪招 ————————— BD720P-MKV/2.61GB
1980 师弟出马 ————————— BD720P-MKV/1.24GB
1981-1984 炮弹飞车1-2 ————— BD720P-MKV/2.47GB/3.96GB
1982 龙少爷 —————————— BD720P-MKV/1.2GB
1983 迷你特工队 ———————— BD720P-MKV/2.6GB
1983-1987 A计划1-2 —————— BD720P-MKV//5.36GB/5.39GB
1984 快餐车 —————————— BD720P-MKV/2.7GB
1985 威龙猛探 ————————— BD720P-MKV/2.71GB
1985 龙的心 —————————— BD720P-MKV/1.15GB
1985-2004 警察故事 —————— BD720P-MKV/2.4GB/2.8GB/2.4GB/2.9GB
1986 龙兄虎弟 ————————— BD720P-MKV/2.74GB
1988 飞龙猛将 ————————— BD720P-MKV/1.48GB
1989 奇迹 ——————————— BD1080P-MKV/5.45GB
1990 火烧岛 —————————— BD720P-MP4/2.03GB
1991 飞鹰计划 ————————— BD720P-MKV/2.4GB
1992 双龙会 —————————— BD720P-MKV/2.4GB
1993 城市猎人 ————————— BD720P-MKV/3.2GB
1993 重案组 —————————— BD720P-MKV/2.4GB
1995 红番区 —————————— BD720P-MKV/2.56GB
1995 霹雳火 —————————— BD720P-MKV/1.59GB
1998 尖峰时刻1-3 ———————— BD720P-MKV/2.07GB/3.04GB/1.90GB
1998 我是谁 —————————— BD720P-MKV/2.29GB
1999 玻璃樽 —————————— BD720P-MKV/3.22GB
2000-2003 上海正午1-2 ————— BD720P-MKV/1.83GB/1.90GB
2001 特务迷城 ————————— BD720P-MKV/2.41GB
2002 神奇燕尾服 ———————— BD720P-MKV/1.26GB
2003 飞龙再生 ————————— BD720P-MP4/3.6GB
2005 神话 ——————————— BD720P-MKV/3.8GB
2006 宝贝计划 ————————— BD1080P-MKV/6.78GB
2008 功夫之王 ————————— BD720P-MP4/1.65GB
2009 新宿事件 ————————— BD720P-MKV/2.8GB
2010 功夫梦 —————————— BD720P-MKV/1.99GB
2010 大兵小将 ————————— BD720P-MKV/2.0GB
2010 邻家特工 ————————— BD720P-MKV/2.06GB
2011 辛亥革命 ————————— BD720P-MP4/1.91GB
2012 十二生肖 ————————— BD720P-MKV/3.84GB
2015 天将雄狮 ————————— BD720P-MKV/2.36GB
2016 绝地逃亡 ————————— BD720P-MKV/2.23GB

General
Unique ID                      : 184368426501857940137406127559665342886 (0x8AB4113D30DCB65880A6CBEFA85D59A6)
Complete name                  : F:\[神话(国粤)]The.Myth.2005.BluRay.720p.x264.2Audio.AC3.mkv
Format                         : Matroska
Format version                 : Version 1
File size                      : 3.80 GiB
Duration                       : 2 h 0 min
Overall bit rate               : 4 512 kb/s
Encoded date                   : UTC 2013-08-07 11:10:26
Writing application            : mkvmerge v2.4.2 ('Oh My God') built on Jan 18 2009 17:30:28
Writing library                : libebml v0.7.7 + libmatroska v0.8.1

Video
ID                             : 1
Format                         : AVC
Format/Info                    : Advanced Video Codec
Format profile                 : High@L4.1
Format settings                : CABAC / 9 Ref Frames
Format settings, CABAC         : Yes
Format settings, ReFrames      : 9 frames
Codec ID                       : V_MPEG4/ISO/AVC
Duration                       : 2 h 0 min
Bit rate                       : 3 486 kb/s
Width                          : 1 280 pixels
Height                         : 720 pixels
Display aspect ratio           : 16:9
Frame rate mode                : Constant
Frame rate                     : 24.000 FPS
Color space                    : YUV
Chroma subsampling             : 4:2:0
Bit depth                      : 8 bits
Scan type                      : Progressive
Bits/(Pixel*Frame)             : 0.158
Stream size                    : 2.86 GiB (75%)
Writing library                : x264 core 133 r2334 a3ac64b
Encoding settings              : cabac=1 / ref=9 / deblock=1:-3:-3 / analyse=0x3:0x133 / me=umh / subme=10 / psy=1 / psy_rd=1.00:0.00 / mixed_ref=1 / me_range=32 / chroma_me=1 / trellis=2 / 8x8dct=1 / cqm=0 / deadzone=21,11 / fast_pskip=0 / chroma_qp_offset=-2 / threads=24 / lookahead_threads=2 / sliced_threads=0 / nr=0 / decimate=1 / interlaced=0 / bluray_compat=0 / constrained_intra=0 / bframes=6 / b_pyramid=2 / b_adapt=2 / b_bias=0 / direct=3 / weightb=1 / open_gop=0 / weightp=2 / keyint=230 / keyint_min=23 / scenecut=40 / intra_refresh=0 / rc_lookahead=80 / rc=2pass / mbtree=1 / bitrate=3486 / ratetol=1.0 / qcomp=0.60 / qpmin=10 / qpmax=51 / qpstep=4 / cplxblur=20.0 / qblur=0.5 / ip_ratio=1.40 / aq=1:1.00
Language                       : English
Default                        : Yes
Forced                         : No

Audio #1
ID                             : 2
Format                         : AC-3
Format/Info                    : Audio Coding 3
Codec ID                       : A_AC3
Duration                       : 2 h 0 min
Bit rate mode                  : Constant
Bit rate                       : 640 kb/s
Channel(s)                     : 6 channels
Channel positions              : Front: L C R, Side: L R, LFE
Sampling rate                  : 48.0 kHz
Frame rate                     : 31.250 FPS (1536 SPF)
Bit depth                      : 16 bits
Compression mode               : Lossy
Stream size                    : 552 MiB (14%)
Title                          : 粤语
Language                       : Chinese
Service kind                   : Complete Main
Default                        : Yes
Forced                         : No

Audio #2
ID                             : 3
Format                         : AC-3
Format/Info                    : Audio Coding 3
Codec ID                       : A_AC3
Duration                       : 2 h 0 min
Bit rate mode                  : Constant
Bit rate                       : 384 kb/s
Channel(s)                     : 6 channels
Channel positions              : Front: L C R, Side: L R, LFE
Sampling rate                  : 48.0 kHz
Frame rate                     : 31.250 FPS (1536 SPF)
Bit depth                      : 16 bits
Compression mode               : Lossy
Delay relative to video        : 1 s 0 ms
Stream size                    : 331 MiB (9%)
Title                          : 国语
Language                       : Chinese
Service kind                   : Complete Main
Default                        : No
Forced                         : No

Text #1
ID                             : 4
Format                         : SSA
Codec ID                       : S_TEXT/SSA
Codec ID/Info                  : Sub Station Alpha
Compression mode               : Lossless
Title                          : 中文字幕
Language                       : Chinese
Default                        : Yes
Forced                         : No

Text #2
ID                             : 5
Format                         : UTF-8
Codec ID                       : S_TEXT/UTF8
Codec ID/Info                  : UTF-8 Plain Text
Title                          : 中文字幕
Language                       : Chinese
Default                        : No
Forced                         : No

百度云网盘资源链接:https://pan.baidu.com/s/1J5X2lGmOxR3Z4nQHXxf9Gw  请回复后可见提取码!
购买主题 本主题需向作者支付 300 金币 才能浏览
回复

使用道具 举报

您需要登录后才可以回帖 登录 | 立即注册

本版积分规则



QQ|Archiver|手机版|小黑屋|经典影视论坛 ( 沪ICP备10221330号 )|网站地图

GMT+8, 2019-11-13 12:02 , Processed in 0.146414 second(s), 30 queries .

免责声明:本站所有资源均收集自互联网,没有提供影片资源存储,也未参与录制、上传。本站资源仅作为个人研究、学习之用!若本站收录的资源涉及您的版权或知识产权或其他利益,请附上版权证明邮件告知,在收到邮件后48小时内删除【站长邮箱:2023554227@qq.com】

快速回复 返回顶部 返回列表